Mujaki no Rakuen
Create an account

+ cqrcgtfg.com »  :::: Dubbed Zone (Dubbed English in Hindi) » English Movies Dubbed in Hindi
|- What Dreams May Come 1998 720p Esub BlyRay Dual Audio English Hindi GOPISAHI

What Dreams May Come 1998 720p Esub BlyRay Dual Audio English Hindi GOPISAHI

0 Members and 1 Guest are viewing this topic.

February 19, 2018, 09:12:23 AM
  • Addic7ed
  • Special Member
  • ****
  • Topic Author
  • Thank You: 382
  • Reputation: 88
  • Activity:
    56.8%
  • Country: in
  • Posts: 803
  • Topics: 759
  • Join Date: Oct 2013
  • ShareSpark Member

Format                         : Matroska
Format version                 : Version 4 / Version 2
File size                      : 630 MiB
Duration                       : 1 h 53 min
Overall bit rate               : 775 kb/s
Movie name                     : What Dreams May Come 1998 GOPISAHI

Video
Format                         : AVC
Codec ID                       : V_MPEG4/ISO/AVC
Duration                       : 1 h 53 min
Bit rate                       : 600 kb/s
Width                          : 1 280 pixels
Height                         : 538 pixels
Display aspect ratio           : 2.40:1
Frame rate mode                : Constant
Frame rate                     : 23.976 (24000/1001) FPS
Writing library                : x264 core 155 r2893 b00bcaf

Audio #1
Format                         : AAC
Duration                       : 1 h 53 min
Bit rate                       : 84.3 kb/s
Channel(s)                     : 6 channels
Channel positions              : Front: L C R, Side: L R, LFE
Sampling rate                  : 44.1 kHz
Frame rate                     : 43.066 FPS (1024 SPF)
Compression mode               : Lossy
Stream size                    : 68.5 MiB (11%)
Language                       : English

Audio #2
Format                         : AAC
Duration                       : 1 h 53 min
Bit rate                       : 88.5 kb/s
Channel(s)                     : 6 channels
Channel positions              : Front: L C R, Side: L R, LFE
Sampling rate                  : 44.1 kHz
Frame rate                     : 43.066 FPS (1024 SPF)
Compression mode               : Lossy
Stream size                    : 72.0 MiB (11%)
Language                       : Hindi

Text
Language                       : English













Share this topic on FacebookShare this topic on GoogleShare this topic on MySpaceShare this topic on TwitterShare this topic on Yahoo



Thanks given by:


Tags:
 

Related Topics

  Subject / Started by Replies Last post
1 Replies
368 Views
Last post February 01, 2018, 10:39:18 AM
by JackRoSe
0 Replies
430 Views
Last post February 02, 2018, 07:50:22 PM
by jattsahi2
0 Replies
372 Views
Last post February 06, 2018, 11:39:07 AM
by jattsahi2
0 Replies
305 Views
Last post February 07, 2018, 09:42:14 AM
by jattsahi2
0 Replies
274 Views
Last post February 13, 2018, 11:57:34 AM
by jattsahi2



Back to top