Plerng Boon - Episode 1
Deep State S01E01 720p HDTV x264-MTB[eztv] mkv

+ cqrcgtfg.com »  :::: Dubbed Zone (Dubbed English in Hindi) » English Movies Dubbed in Hindi
|- 8 Mile (2002) 720p BluRay x264 Dual Audio [Hindi DD5.1 - English DD2.0] - Esub ~ Ranvijay

8 Mile (2002) 720p BluRay x264 Dual Audio [Hindi DD5.1 - English DD2.0] - Esub ~ Ranvijay

0 Members and 1 Guest are viewing this topic.

February 17, 2018, 11:41:18 AM
  • Global Moderator
  • Legend Member
  • *****
  • Topic Author
  • Thank You: 6203
  • Reputation: 1329
  • Activity:
    100%
  • Country: in
  • Posts: 4058
  • Topics: 3395
  • Join Date: Jan 2014
  • ıllıllı ѕмoĸιng ιѕ good ғor нealтн ıllıllı :)





8 Mile (2002) 720p BluRay x264 Dual Audio [Hindi DD5.1 - English DD2.0] - Esub ~ Ranvijay
Thanks To Rajput For Hindi Audio

Quote
Format                                   : Matroska
Format version                           : Version 4 / Version 2
File size                                : 748 MiB
Duration                                 : 1 h 50 min
Overall bit rate                         : 947 kb/s
Movie name                               : 8 Mile (2002) 720p BluRay x264 Dual Audio [Hindi DD5.1 - English DD2.0] - Esub ~ Ranvijay

Video
Duration                                 : 1 h 50 min
Bit rate                                 : 721 kb/s
Width                                    : 1 280 pixels
Height                                   : 544 pixels
Display aspect ratio                     : 2.35:1
Frame rate mode                          : Constant
Frame rate                               : 23.976 (24000/1001) FPS
Color space                              : YUV
Chroma subsampling                       : 4:2:0
Bit depth                                : 8 bits
Scan type                                : Progressive
Bits/(Pixel*Frame)                       : 0.043
Stream size                              : 569 MiB (76%)
Title                                    : ~Ranvijay~
Default                                  : Yes
Forced                                   : No

Audio #1
ID                                       : 2
Format                                   : AAC
Format/Info                              : Advanced Audio Codec
Format profile                           : HE-AAC / LC
Format settings                          : Explicit
Codec ID                                 : A_AAC-2
Duration                                 : 1 h 50 min
Bit rate                                 : 31.9 kb/s
Channel(s)                               : 2 channels
Channel positions                        : Front: L R
Sampling rate                            : 48.0 kHz / 24.0 kHz
Frame rate                               : 23.438 FPS (1024 SPF)
Compression mode                         : Lossy
Stream size                              : 25.2 MiB (3%)
Title                                    : ~Ranvijay~
Language                                 : English
Default                                  : No
Forced                                   : No

Audio #2
ID                                       : 4
Format                                   : AC-3
Format/Info                              : Audio Coding 3
Codec ID                                 : A_AC3
Duration                                 : 1 h 50 min
Bit rate mode                            : Constant
Bit rate                                 : 192 kb/s
Channel(s)                               : 6 channels
Channel positions                        : Front: L C R, Side: L R, LFE
Sampling rate                            : 48.0 kHz
Frame rate                               : 31.250 FPS (1536 SPF)
Bit depth                                : 16 bits
Compression mode                         : Lossy
Stream size                              : 152 MiB (20%)
Title                                    : ~Ranvijay~
Language                                 : Hindi
Service kind                             : Complete Main
Default                                  : Yes
Forced                                   : No

Text
ID                                       : 3
Format                                   : UTF-8
Codec ID                                 : S_TEXT/UTF8
Codec ID/Info                            : UTF-8 Plain Text
Duration                                 : 1 h 50 min
Bit rate                                 : 63 b/s
Count of elements                        : 1566
Stream size                              : 51.6 KiB (0%)
Title                                    : ~Ranvijay~
Language                                 : English
Default                                  : Yes
Forced                                   : No









:download:

Quote

File Leeched & Uploaded From




Don't walk as you are king, walk as you don't care who the king is....!!
Never argue with an idiot. They drag you down to their level and then beat you with experience?

Share this topic on FacebookShare this topic on GoogleShare this topic on MySpaceShare this topic on TwitterShare this topic on Yahoo

« Last Edit: February 17, 2018, 11:41:56 AM by Rάήνίјάч1234 »



Don't walk as you are king, walk as you don't care who the king is....!!

Thanks given by:


Tags:
 

Related Topics




Back to top