W.I.T.C.H.
Tập 3 Idol Jihen

+ cqrcgtfg.com »  :::: Dubbed Zone (Dubbed English in Hindi) » English Movies Dubbed in Hindi » HEVC / H.265 Releases
|- Three Billboards Outside Ebbing Missouri (2017) BRRip 720p HEVC Dual Audio [Hindi 6ch + Eng 2ch] AAC

Three Billboards Outside Ebbing Missouri (2017) BRRip 720p HEVC Dual Audio [Hindi 6ch + Eng 2ch] AAC

0 Members and 1 Guest are viewing this topic.

February 16, 2018, 01:01:06 PM
  • Semi Newbie
  • **
  • Topic Author
  • Thank You: 36
  • Reputation: 8
  • Activity:
    9.8%
  • Country: in
  • Posts: 46
  • Topics: 42
  • Join Date: Feb 2018
  • ShareSpark Member
Three Billboards Outside Ebbing Missouri (2017) BRRip 720p HEVC Dual Audio [Hindi 6ch + Eng 2ch] AAC Esub ~Katyayan~



Thanks To Mr.Rajput &  -Ð@rk.ÐèVi£-

-=General=-

Format                                   : Matroska
Format version                           : Version 4 / Version 2
File size                                : 918 MiB
Duration                                 : 1 h 55 min
Overall bit rate                         : 1 113 kb/s
Movie name                               : Three Billboards Outside Ebbing Missouri (2017) BRRip 720p HEVC Dual Audio [Hindi 6ch + Eng 2ch] AAC Esub ~Katyayan~
Encoded date                             : UTC 2018-02-16 05:43:52
Writing application                      : mkvmerge v14.0.0 ('Flow') 32bit
Writing library                          : libebml v1.3.4 + libmatroska v1.4.5

-=Video=-

ID                                       : 1
Format                                   : HEVC
Format/Info                              : High Efficiency Video Coding
Format profile                           : [email protected]@Main
Codec ID                                 : V_MPEGH/ISO/HEVC
Duration                                 : 1 h 55 min
Bit rate                                 : 787 kb/s
Width                                    : 1 280 pixels
Height                                   : 536 pixels
Display aspect ratio                     : 2.40:1
Frame rate mode                          : Constant
Frame rate                               : 23.976 (24000/1001) FPS
Color space                              : YUV
Chroma subsampling                       : 4:2:0
Bit depth                                : 8 bits
Bits/(Pixel*Frame)                       : 0.048
Stream size                              : 650 MiB (71%)
Title                                    : Three Billboards Outside Ebbing Missouri (2017) BRRip 720p HEVC Dual Audio [Hindi 6ch + Eng 2ch] AAC Esub ~Katyayan~
Language                                 : English
Default                                  : Yes
Forced                                   : Yes

-=Audio #1=-

ID                                       : 2
Format                                   : AAC
Format/Info                              : Advanced Audio Codec
Format profile                           : HE-AAC / LC
Codec ID                                 : A_AAC
Duration                                 : 1 h 55 min
Bit rate                                 : 66.2 kb/s
Channel(s)                               : 2 channels
Channel positions                        : Front: L R
Sampling rate                            : 48.0 kHz / 24.0 kHz
Frame rate                               : 23.438 FPS (1024 spf)
Compression mode                         : Lossy
Delay relative to video                  : 23 ms
Stream size                              : 53.8 MiB (6%)
Title                                    : ~Katyayan~
Language                                 : English
Default                                  : No
Forced                                   : No

-=Audio #2=-

ID                                       : 4
Format                                   : AAC
Format/Info                              : Advanced Audio Codec
Format profile                           : LC
Codec ID                                 : A_AAC
Duration                                 : 1 h 55 min
Bit rate                                 : 258 kb/s
Channel(s)                               : 6 channels
Channel positions                        : Front: L C R, Side: L R, LFE
Sampling rate                            : 48.0 kHz
Frame rate                               : 46.875 FPS (1024 spf)
Compression mode                         : Lossy
Stream size                              : 212 MiB (23%)
Title                                    : ~Katyayan~
Language                                 : Hindi
Default                                  : Yes
Forced                                   : Yes

-=Text=-

ID                                       : 3
Format                                   : UTF-8
Codec ID                                 : S_TEXT/UTF8
Codec ID/Info                            : UTF-8 Plain Text
Duration                                 : 1 h 55 min
Bit rate                                 : 77 b/s
Count of elements                        : 1738
Stream size                              : 65.0 KiB (0%)
Title                                    : ~Katyayan~
Language                                 : English
Default                                  : Yes
Forced                                   : Yes
 






Share this topic on FacebookShare this topic on GoogleShare this topic on MySpaceShare this topic on TwitterShare this topic on Yahoo

« Last Edit: February 16, 2018, 01:17:41 PM by Katyayan »



Tags:
 

Related Topics




Back to top