Советские
Wilfred (2011)

+ cqrcgtfg.com »  :::: Dubbed Zone (Dubbed English in Hindi) » English Movies Dubbed in Hindi
|- Three Billboards Outside Ebbing Missouri (2017) 720p BluRay x264 Dual Audio [Hindi DD5.1 - English D

  • Three Billboards Outside Ebbing Missouri (2017) 720p BluRay x264 Dual Audio [Hindi DD5.1 - English D 5 1
Currently:  

Three Billboards Outside Ebbing Missouri (2017) 720p BluRay x264 Dual Audio [Hindi DD5.1 - English D

0 Members and 1 Guest are viewing this topic.

February 16, 2018, 10:10:35 AM
  • Global Moderator
  • Legend Member
  • *****
  • Topic Author
  • Thank You: 6203
  • Reputation: 1329
  • Activity:
    100%
  • Country: in
  • Posts: 4058
  • Topics: 3395
  • Join Date: Jan 2014
  • ıllıllı ѕмoĸιng ιѕ good ғor нealтн ıllıllı :)





Three Billboards Outside Ebbing Missouri (2017) 720p BluRay x264 Dual Audio [Hindi DD5.1 - English DD5.1] - Msubs ~ Ranvijay
Thanks To Rajput For Hindi Audio

Quote
Format                                   : Matroska
Format version                           : Version 4 / Version 2
File size                                : 1.77 GiB
Duration                                 : 1 h 55 min
Overall bit rate                         : 2 194 kb/s
Movie name                               : Three Billboards Outside Ebbing Missouri (2017) 720p BluRay x264 Dual Audio [Hindi DD5.1 - English DD5.1] - Msubs ~ Ranvijay

Video
Duration                                 : 1 h 55 min
Bit rate                                 : 1 500 kb/s
Width                                    : 1 280 pixels
Height                                   : 536 pixels
Display aspect ratio                     : 2.40:1
Frame rate mode                          : Constant
Frame rate                               : 23.976 (23976/1000) FPS
Color space                              : YUV
Chroma subsampling                       : 4:2:0
Bit depth                                : 8 bits
Scan type                                : Progressive
Bits/(Pixel*Frame)                       : 0.091
Stream size                              : 1.21 GiB (68%)
Title                                    : ~Ranvijay~
Default                                  : Yes
Forced                                   : No

Audio #1
ID                                       : 2
Format                                   : AC-3
Format/Info                              : Audio Coding 3
Codec ID                                 : A_AC3
Duration                                 : 1 h 55 min
Bit rate mode                            : Constant
Bit rate                                 : 448 kb/s
Channel(s)                               : 6 channels
Channel positions                        : Front: L C R, Side: L R, LFE
Sampling rate                            : 48.0 kHz
Frame rate                               : 31.250 FPS (1536 SPF)
Bit depth                                : 16 bits
Compression mode                         : Lossy
Stream size                              : 370 MiB (20%)
Title                                    : ~Ranvijay~
Language                                 : Hindi
Service kind                             : Complete Main
Default                                  : Yes
Forced                                   : No

Audio #2
ID                                       : 3
Format                                   : AAC
Format/Info                              : Advanced Audio Codec
Format profile                           : LC
Codec ID                                 : A_AAC-2
Duration                                 : 1 h 55 min
Bit rate                                 : 224 kb/s
Channel(s)                               : 6 channels
Channel positions                        : Front: L C R, Side: L R, LFE
Sampling rate                            : 48.0 kHz
Frame rate                               : 46.875 FPS (1024 SPF)
Compression mode                         : Lossy
Stream size                              : 185 MiB (10%)
Title                                    : ~Ranvijay~
Language                                 : English
Default                                  : No
Forced                                   : No

Text #1
ID                                       : 4
Format                                   : PGS
Muxing mode                              : zlib
Codec ID                                 : S_HDMV/PGS
Codec ID/Info                            : Picture based subtitle format used on BDs/HD-DVDs
Duration                                 : 1 h 52 min
Bit rate                                 : 29.8 kb/s
Count of elements                        : 2338
Stream size                              : 23.9 MiB (1%)
Title                                    : ~Ranvijay~
Language                                 : Hindi
Default                                  : Yes
Forced                                   : No

Text #2
ID                                       : 5
Format                                   : VobSub
Muxing mode                              : zlib
Codec ID                                 : S_VOBSUB
Codec ID/Info                            : Picture based subtitle format used on DVDs
Duration                                 : 1 h 53 min
Bit rate                                 : 11.3 kb/s
Count of elements                        : 1738
Stream size                              : 9.15 MiB (1%)
Title                                    : ~Ranvijay~
Language                                 : English
Default                                  : No
Forced                                   : No










:download:

Quote








File Leeched & Uploaded From




Don't walk as you are king, walk as you don't care who the king is....!!
Never argue with an idiot. They drag you down to their level and then beat you with experience?

Share this topic on FacebookShare this topic on GoogleShare this topic on MySpaceShare this topic on TwitterShare this topic on Yahoo

« Last Edit: March 11, 2018, 02:30:34 PM by JackRoSe »



Don't walk as you are king, walk as you don't care who the king is....!!

Thanks given by:


February 16, 2018, 11:32:57 AM
Reply #1
  • Semi Newbie
  • **
  • Thank You: 3
  • Reputation: 1
  • Activity:
    7.8%
  • Country: in
  • Posts: 36
  • Topics: 6
  • Join Date: Dec 2017
  • ShareSpark Member

February 16, 2018, 12:30:58 PM
Reply #2
  • Global Moderator
  • Legend Member
  • *****
  • Topic Author
  • Thank You: 6203
  • Reputation: 1329
  • Activity:
    100%
  • Country: in
  • Posts: 4058
  • Topics: 3395
  • Join Date: Jan 2014
  • ıllıllı ѕмoĸιng ιѕ good ғor нealтн ıllıllı :)

Don't walk as you are king, walk as you don't care who the king is....!!

February 16, 2018, 03:46:18 PM
Reply #3
  • Begginer
  • **
  • Thank You: 4
  • Reputation: 0
  • Activity:
    6.6%
  • Posts: 56
  • Topics: 6
  • Join Date: Mar 2013
  • ShareSpark Member

February 16, 2018, 07:58:54 PM
Reply #4
  • Addic7ed
  • Elite Forces
  • ****
  • Thank You: 117
  • Reputation: 78
  • Activity:
    5.6%
  • Country: pk
  • Posts: 1123
  • Topics: 324
  • Join Date: Sep 2012
  • ShareSpark Member

February 16, 2018, 10:06:19 PM
Reply #5
  • Hero Member
  • ***
  • Thank You: 6
  • Reputation: 5
  • Activity:
    9.4%
  • Country: in
  • Posts: 311
  • Topics: 7
  • Join Date: Mar 2012
  • ShareSpark Member.. Contact me 4 anything.

February 16, 2018, 11:16:14 PM
Reply #6
  • Royal Member
  • ****
  • Thank You: 200
  • Reputation: 87
  • Activity:
    28%
  • Country: sa
  • Posts: 1072
  • Topics: 108
  • Join Date: Jan 2017
  • ShareSpark Member

March 01, 2018, 11:45:51 AM
Reply #7
  • Semi Newbie
  • **
  • Thank You: 0
  • Reputation: 1
  • Activity:
    1.8%
  • Country: in
  • Posts: 9
  • Topics: 0
  • Join Date: Jun 2017
  • ShareSpark Member

March 01, 2018, 03:36:47 PM
Reply #8
  • Global Moderator
  • Legend Member
  • *****
  • Topic Author
  • Thank You: 6203
  • Reputation: 1329
  • Activity:
    100%
  • Country: in
  • Posts: 4058
  • Topics: 3395
  • Join Date: Jan 2014
  • ıllıllı ѕмoĸιng ιѕ good ғor нealтн ıllıllı :)
Still Working

Don't walk as you are king, walk as you don't care who the king is....!!

March 01, 2018, 06:22:37 PM
Reply #9
  • Semi Newbie
  • **
  • Thank You: 0
  • Reputation: 1
  • Activity:
    1.8%
  • Country: in
  • Posts: 9
  • Topics: 0
  • Join Date: Jun 2017
  • ShareSpark Member
Getting Google Drive error. But I Downloaded Torrent. Thanks :)

March 11, 2018, 11:26:15 AM
Reply #10
  • Hero Member
  • ***
  • Thank You: 6
  • Reputation: 9
  • Activity:
    1%
  • Posts: 357
  • Topics: 4
  • Join Date: Apr 2012
  • ShareSpark Member

March 11, 2018, 02:31:17 PM
Reply #11
  • Conqueror
  • Royal Member
  • *****
  • Thank You: 413
  • Reputation: 163
  • Activity:
    100%
  • Country: in
  • Posts: 914
  • Topics: 425
  • Join Date: Oct 2015
  • Hit ThanX Button 🔳 N Repute Button 🔳
Hit Thnx Button 🔳 N + Repute Button 🔳 Always Appreciate UploadeR 🤗 GiVe Respect GeT Respect :yu:

Tags:
 

Related Topics




Back to top