Temporada 2
Sa Re Ga Ma Pa Lil Champs 2011

+ cqrcgtfg.com »  :::: Dubbed Zone (Dubbed English in Hindi) » English Movies Dubbed in Hindi
|- Mercury Rising (1998) 720p BluRay x264 Dual Audio [Hindi DD5.1 - English DD5.1] ~ Ranvijay

Mercury Rising (1998) 720p BluRay x264 Dual Audio [Hindi DD5.1 - English DD5.1] ~ Ranvijay

0 Members and 1 Guest are viewing this topic.

February 15, 2018, 08:21:32 PM
  • Global Moderator
  • Legend Member
  • *****
  • Topic Author
  • Thank You: 6237
  • Reputation: 1339
  • Activity:
    100%
  • Country: in
  • Posts: 4065
  • Topics: 3400
  • Join Date: Jan 2014
  • ıllıllı ѕмoĸιng ιѕ good ғor нealтн ıllıllı :)




Mercury Rising (1998) 720p BluRay x264 Dual Audio [Hindi DD5.1 - English DD5.1] ~ Ranvijay

Thanks To SJ For Hindi Audio

Format                                   : Matroska
Format version                           : Version 4 / Version 2
File size                                : 1.49 GiB
Duration                                 : 1 h 51 min
Overall bit rate                         : 1 918 kb/s
Movie name                               : Mercury Rising ((1998) 720p BluRay x264 Dual Audio [Hindi DD5.1 - English DD5.1] ~ Ranvijay

Video
Duration                                 : 1 h 51 min
Bit rate                                 : 1 500 kb/s
Width                                    : 1 280 pixels
Height                                   : 544 pixels
Display aspect ratio                     : 2.35:1
Frame rate mode                          : Constant
Frame rate                               : 23.976 (24000/1001) FPS
Original frame rate                      : 23.976 (23976/1000) FPS
Color space                              : YUV
Chroma subsampling                       : 4:2:0
Bit depth                                : 8 bits
Scan type                                : Progressive
Bits/(Pixel*Frame)                       : 0.090
Stream size                              : 1.17 GiB (78%)
Title                                    : ~Ranvijay~
Default                                  : Yes
Forced                                   : No

Audio #1
ID                                       : 2
Format                                   : AC-3
Format/Info                              : Audio Coding 3
Codec ID                                 : A_AC3
Duration                                 : 1 h 51 min
Bit rate mode                            : Constant
Bit rate                                 : 192 kb/s
Channel(s)                               : 6 channels
Channel positions                        : Front: L C R, Side: L R, LFE
Sampling rate                            : 48.0 kHz
Frame rate                               : 31.250 FPS (1536 SPF)
Bit depth                                : 16 bits
Compression mode                         : Lossy
Stream size                              : 153 MiB (10%)
Title                                    : ~Ranvijay~
Language                                 : Hindi
Service kind                             : Complete Main
Default                                  : Yes
Forced                                   : No

Audio #2
ID                                       : 3
Format                                   : AAC
Format/Info                              : Advanced Audio Codec
Format profile                           : LC
Codec ID                                 : A_AAC-2
Duration                                 : 1 h 51 min
Bit rate                                 : 224 kb/s
Channel(s)                               : 6 channels
Channel positions                        : Front: L C R, Side: L R, LFE
Sampling rate                            : 48.0 kHz
Frame rate                               : 46.875 FPS (1024 SPF)
Compression mode                         : Lossy
Stream size                              : 179 MiB (12%)
Title                                    : ~Ranvijay~
Language                                 : English
Default                                  : No
Forced                                   : No













:download:

Quote

File Leeched & Uploaded From




Don't walk as you are king, walk as you don't care who the king is....!!
Never argue with an idiot. They drag you down to their level and then beat you with experience?

Share this topic on FacebookShare this topic on GoogleShare this topic on MySpaceShare this topic on TwitterShare this topic on Yahoo

« Last Edit: February 15, 2018, 11:17:13 PM by Rάήνίјάч1234 »



Don't walk as you are king, walk as you don't care who the king is....!!

Thanks given by:


February 15, 2018, 10:09:43 PM
Reply #1
  • Conqueror
  • Royal Member
  • *****
  • Thank You: 413
  • Reputation: 163
  • Activity:
    100%
  • Country: in
  • Posts: 914
  • Topics: 425
  • Join Date: Oct 2015
  • Hit ThanX Button 🔳 N Repute Button 🔳
Awesome Movie Must Watch, बच्चों ka Kaam Mast hai  :worthy:   :thank:  :rep: Added
Hit Thnx Button 🔳 N + Repute Button 🔳 Always Appreciate UploadeR 🤗 GiVe Respect GeT Respect :yu:

February 16, 2018, 02:02:23 AM
Reply #2
  • Hero Member
  • ***
  • Thank You: 0
  • Reputation: 7
  • Activity:
    73.8%
  • Country: au
  • Posts: 354
  • Topics: 0
  • Join Date: Oct 2017
  • ShareSpark Member

Tags:
 

Related Topics




Back to top