First Time Flippers S07E03 On A Limb HDTV x264-CRiMSON [eztv]
Arabic Pirates Community / Al Mougtama3 ell 3arabyy

+ cqrcgtfg.com »  :::: Dubbed Zone (Dubbed English in Hindi) » English Movies Dubbed in Hindi
|- Jack the Giant Slayer (2013) 720p BluRay x264 Dual Audio [Hindi DD2.0 - English DD5.1] - Esub ~ Ranv

Jack the Giant Slayer (2013) 720p BluRay x264 Dual Audio [Hindi DD2.0 - English DD5.1] - Esub ~ Ranv

0 Members and 1 Guest are viewing this topic.

February 07, 2018, 01:05:29 AM
  • Global Moderator
  • Legend Member
  • *****
  • Topic Author
  • Thank You: 6203
  • Reputation: 1329
  • Activity:
    100%
  • Country: in
  • Posts: 4058
  • Topics: 3395
  • Join Date: Jan 2014
  • ıllıllı ѕмoĸιng ιѕ good ғor нealтн ıllıllı :)





Jack the Giant Slayer (2013) 720p BluRay x264 Dual Audio [Hindi DD2.0 - English DD5.1] - Esub ~ Ranvijay
Thanks To Rohit For Hindi Audio

Quote
Format                                   : Matroska
Format version                           : Version 4 / Version 2
File size                                : 3.49 GiB
Duration                                 : 1 h 54 min
Overall bit rate                         : 4 367 kb/s
Movie name                               : Jack the Giant Slayer (2013) 720p BluRay x264 Dual Audio [Hindi DD2.0 - English DD5.1] - Esub ~ Ranvijay

Video
ID                                       : 1
Format                                   : AVC
Format/Info                              : Advanced Video Codec
Duration                                 : 1 h 54 min
Bit rate                                 : 3 534 kb/s
Width                                    : 1 280 pixels
Height                                   : 534 pixels
Display aspect ratio                     : 2.40:1
Frame rate mode                          : Constant
Frame rate                               : 23.976 (24000/1001) FPS
Color space                              : YUV
Chroma subsampling                       : 4:2:0
Bit depth                                : 8 bits
Scan type                                : Progressive
Bits/(Pixel*Frame)                       : 0.216
Stream size                              : 2.82 GiB (81%)
Title                                    : ~Ranvijay~
Language                                 : English
Default                                  : Yes
Forced                                   : No

Audio #1
ID                                       : 3
Format                                   : AC-3
Format/Info                              : Audio Coding 3
Codec ID                                 : A_AC3
Duration                                 : 1 h 54 min
Bit rate mode                            : Constant
Bit rate                                 : 384 kb/s
Channel(s)                               : 2 channels
Channel positions                        : Front: L R
Sampling rate                            : 48.0 kHz
Frame rate                               : 31.250 FPS (1536 SPF)
Bit depth                                : 16 bits
Compression mode                         : Lossy
Stream size                              : 314 MiB (9%)
Title                                    : ~Ranvijay~
Language                                 : Hindi
Service kind                             : Complete Main
Default                                  : Yes
Forced                                   : No

Audio #2
ID                                       : 4
Format                                   : AC-3
Format/Info                              : Audio Coding 3
Codec ID                                 : A_AC3
Duration                                 : 1 h 54 min
Bit rate mode                            : Constant
Bit rate                                 : 448 kb/s
Channel(s)                               : 6 channels
Channel positions                        : Front: L C R, Side: L R, LFE
Sampling rate                            : 48.0 kHz
Frame rate                               : 31.250 FPS (1536 SPF)
Bit depth                                : 16 bits
Compression mode                         : Lossy
Stream size                              : 366 MiB (10%)
Title                                    : ~Ranvijay~
Language                                 : English
Service kind                             : Complete Main
Default                                  : No
Forced                                   : No

Text
ID                                       : 2
Format                                   : UTF-8
Codec ID                                 : S_TEXT/UTF8
Codec ID/Info                            : UTF-8 Plain Text
Duration                                 : 1 h 53 min
Bit rate                                 : 45 b/s
Count of elements                        : 1467
Stream size                              : 38.0 KiB (0%)
Title                                    : ~Ranvijay~
Language                                 : English
Default                                  : Yes
Forced                                   : No

Menu
00:00:00.000                             : en:00:00:00.000
00:10:21.371                             : en:00:10:21.371
00:19:23.746                             : en:00:19:23.746
00:29:52.207                             : en:00:29:52.207
00:38:55.375                             : en:00:38:55.375
00:49:24.879                             : en:00:49:24.879
00:59:35.489                             : en:00:59:35.489
01:09:26.287                             : en:01:09:26.287
01:20:39.168                             : en:01:20:39.168
01:29:51.303                             : en:01:29:51.303
01:39:02.812                             : en:01:39:02.812
01:45:57.726                             : en:01:45:57.726

















:download:

Quote









File Leeched & Uploaded From




Don't walk as you are king, walk as you don't care who the king is....!!
Never argue with an idiot. They drag you down to their level and then beat you with experience?

Share this topic on FacebookShare this topic on GoogleShare this topic on MySpaceShare this topic on TwitterShare this topic on Yahoo

« Last Edit: February 07, 2018, 02:02:28 AM by Rάήνίјάч1234 »



Don't walk as you are king, walk as you don't care who the king is....!!

Thanks given by:


Tags:
 

Related Topics




Back to top