Death Valley
Moonlight

+ cqrcgtfg.com »  :::: Dubbed Zone (Dubbed English in Hindi) » English Movies Dubbed in Hindi
|- I Am Legend (2007) 720p BluRay x264 Dual Audio [Hindi DD2.0 - English DD5.1] - Esub ~ Ranvijay

  • I Am Legend (2007) 720p BluRay x264 Dual Audio [Hindi DD2.0 - English DD5.1] - Esub ~ Ranvijay 5 1
Currently:  

I Am Legend (2007) 720p BluRay x264 Dual Audio [Hindi DD2.0 - English DD5.1] - Esub ~ Ranvijay

0 Members and 1 Guest are viewing this topic.

February 05, 2018, 09:20:02 PM
  • Global Moderator
  • Legend Member
  • *****
  • Topic Author
  • Thank You: 6237
  • Reputation: 1339
  • Activity:
    100%
  • Country: in
  • Posts: 4065
  • Topics: 3400
  • Join Date: Jan 2014
  • ıllıllı ѕмoĸιng ιѕ good ғor нealтн ıllıllı :)





I Am Legend (2007) 720p BluRay x264 Dual Audio [Hindi DD2.0 - English DD5.1] - Esub ~ Ranvijay
Thanks To Rohit For Hindi Audio

Quote
Format                                   : Matroska
Format version                           : Version 4 / Version 2
File size                                : 2.54 GiB
Duration                                 : 1 h 40 min
Overall bit rate                         : 3 620 kb/s
Movie name                               : I Am Legend (2007) 720p BluRay x264 Dual Audio [Hindi DD2.0 - English DD5.1] - Esub ~ Ranvijay
Encoded date                             : UTC 2018-02-05 12:50:03

Video
ID                                       : 1
Format                                   : AVC
Format/Info                              : Advanced Video Codec
Format profile                           : [email protected]
Format settings                          : CABAC / 8 Ref Frames
Format settings, CABAC                   : Yes
Format settings, RefFrames               : 8 frames
Codec ID                                 : V_MPEG4/ISO/AVC
Duration                                 : 1 h 40 min
Bit rate                                 : 2 786 kb/s
Width                                    : 1 280 pixels
Height                                   : 530 pixels
Display aspect ratio                     : 2.40:1
Frame rate mode                          : Constant
Frame rate                               : 23.976 (24000/1001) FPS
Color space                              : YUV
Chroma subsampling                       : 4:2:0
Bit depth                                : 8 bits
Scan type                                : Progressive
Bits/(Pixel*Frame)                       : 0.171
Stream size                              : 1.96 GiB (77%)
Title                                    : ~Ranvijay~
Language                                 : English
Default                                  : Yes
Forced                                   : No

Audio #1
ID                                       : 3
Format                                   : AC-3
Format/Info                              : Audio Coding 3
Codec ID                                 : A_AC3
Duration                                 : 1 h 40 min
Bit rate mode                            : Constant
Bit rate                                 : 384 kb/s
Channel(s)                               : 2 channels
Channel positions                        : Front: L R
Sampling rate                            : 48.0 kHz
Frame rate                               : 31.250 FPS (1536 SPF)
Bit depth                                : 16 bits
Compression mode                         : Lossy
Stream size                              : 276 MiB (11%)
Title                                    : ~Ranvijay~
Language                                 : Hindi
Service kind                             : Complete Main
Default                                  : Yes
Forced                                   : No

Audio #2
ID                                       : 4
Format                                   : AC-3
Format/Info                              : Audio Coding 3
Codec ID                                 : A_AC3
Duration                                 : 1 h 40 min
Bit rate mode                            : Constant
Bit rate                                 : 448 kb/s
Channel(s)                               : 6 channels
Channel positions                        : Front: L C R, Side: L R, LFE
Sampling rate                            : 48.0 kHz
Frame rate                               : 31.250 FPS (1536 SPF)
Bit depth                                : 16 bits
Compression mode                         : Lossy
Stream size                              : 322 MiB (12%)
Title                                    : ~Ranvijay~
Language                                 : English
Service kind                             : Complete Main
Default                                  : No
Forced                                   : No

Text
ID                                       : 2
Format                                   : UTF-8
Codec ID                                 : S_TEXT/UTF8
Codec ID/Info                            : UTF-8 Plain Text
Duration                                 : 1 h 31 min
Bit rate                                 : 33 b/s
Count of elements                        : 657
Stream size                              : 22.3 KiB (0%)
Title                                    : ~Ranvijay~
Language                                 : English
Default                                  : No
Forced                                   : No















:download:

Quote










File Leeched & Uploaded From




Don't walk as you are king, walk as you don't care who the king is....!!
Never argue with an idiot. They drag you down to their level and then beat you with experience?

Share this topic on FacebookShare this topic on GoogleShare this topic on MySpaceShare this topic on TwitterShare this topic on Yahoo

« Last Edit: February 06, 2018, 07:05:39 PM by Rάήνίјάч1234 »



Don't walk as you are king, walk as you don't care who the king is....!!

Thanks given by:


February 05, 2018, 11:14:04 PM
Reply #1
  • Conqueror
  • Royal Member
  • *****
  • Thank You: 413
  • Reputation: 163
  • Activity:
    100%
  • Country: in
  • Posts: 914
  • Topics: 425
  • Join Date: Oct 2015
  • Hit ThanX Button 🔳 N Repute Button 🔳
Hit Thnx Button 🔳 N + Repute Button 🔳 Always Appreciate UploadeR 🤗 GiVe Respect GeT Respect :yu:

February 05, 2018, 11:32:57 PM
Reply #2
  • Devoted Member
  • **
  • Thank You: 0
  • Reputation: 0
  • Activity:
    23.4%
  • Posts: 133
  • Topics: 0
  • Join Date: Nov 2013
  • ShareSpark Member

February 06, 2018, 08:15:32 AM
Reply #3
  • Addic7ed
  • Elite Forces
  • ****
  • Thank You: 117
  • Reputation: 78
  • Activity:
    5.8%
  • Country: pk
  • Posts: 1124
  • Topics: 324
  • Join Date: Sep 2012
  • ShareSpark Member
download ka option ni arha plz upload it into archive or uptobox :thank:

February 06, 2018, 10:53:10 AM
Reply #4
  • Devoted Member
  • **
  • Thank You: 5
  • Reputation: 2
  • Activity:
    1.4%
  • Country: in
  • Posts: 151
  • Topics: 42
  • Join Date: Jan 2013
  • ShareSpark Member
please upload 1080p true hd formet.....HIGHQUALITY...........thank u..........

February 06, 2018, 11:24:39 AM
Reply #5
  • Hot Member
  • ***
  • Thank You: 23
  • Reputation: 7
  • Activity:
    10.4%
  • Country: bd
  • Posts: 556
  • Topics: 12
  • Join Date: Jun 2017
  • ShareSpark Member

February 06, 2018, 12:50:32 PM
Reply #6
  • Senior Member
  • ***
  • Thank You: 0
  • Reputation: 0
  • Activity:
    0.6%
  • Country: in
  • Posts: 245
  • Topics: 0
  • Join Date: Feb 2012
  • ShareSpark Member

February 06, 2018, 05:49:38 PM
Reply #7
  • Global Moderator
  • Legend Member
  • *****
  • Topic Author
  • Thank You: 6237
  • Reputation: 1339
  • Activity:
    100%
  • Country: in
  • Posts: 4065
  • Topics: 3400
  • Join Date: Jan 2014
  • ıllıllı ѕмoĸιng ιѕ good ғor нealтн ıllıllı :)

Don't walk as you are king, walk as you don't care who the king is....!!

February 06, 2018, 11:21:30 PM
Reply #8
  • Addic7ed
  • Elite Forces
  • ****
  • Thank You: 117
  • Reputation: 78
  • Activity:
    5.8%
  • Country: pk
  • Posts: 1124
  • Topics: 324
  • Join Date: Sep 2012
  • ShareSpark Member

Tags:
 

Related Topics




Back to top