Is Fredrik Eklund Ready to Be a Dad? Find out how he's feeling in the weeks leading up to the arrival of his twins. Watch Video
Bethenny Frankel

+ cqrcgtfg.com »  :::: Bollywood Zone » Indian PC Videos
|- Tiger.Zinda.Hai.2017..BD50.-.YRF.-.AVC.TrueHD.(MUSIC.VIDEO.ALBUM).-.Hon3y [With Google Drive]


Tiger.Zinda.Hai.2017..BD50.-.YRF.-.AVC.TrueHD.(MUSIC.VIDEO.ALBUM).-.Hon3y [With Google Drive]

0 Members and 1 Guest are viewing this topic.

February 13, 2018, 12:25:12 PM
  • Hero Member
  • ***
  • Topic Author
  • Thank You: 292
  • Reputation: 173
  • Activity:
    63.2%
  • Country: np
  • Posts: 355
  • Topics: 140
  • Join Date: Jul 2016
  • ShareSpark Member
Tiger.Zinda.Hai.2017..BD50.-.YRF.-.AVC.TrueHD.(MUSIC.VIDEO.ALBUM).-.Hon3y



 :info:
Source By Rohit Only on Hon3yHD Thanks
Format |*| BDAV
Format/Info |*| Blu-ray Video
Maximum Overall bit rate |*| 35.0 Mbps
Format |*| m2ts
File size |*| 4.24 GB

Video
ID                                       : 4113 (0x1011)
Menu ID                                  : 1 (0x1)
Format                                   : AVC
Format/Info                              : Advanced Video Codec
Format profile                           : [email protected]
Format settings                          : 4 Ref Frames
Format settings, CABAC                   : No
Format settings, RefFrames               : 4 frames
Codec ID                                 : 27
Duration                                 : 4 min 49 s
Bit rate mode                            : Variable
Bit rate                                 : 36.2 Mb/s
Maximum bit rate                         : 40.0 Mb/s
Width                                    : 1 920 pixels
Height                                   : 1 080 pixels
Display aspect ratio                     : 16:9
Frame rate                               : 24.000 FPS
Color space                              : YUV
Chroma subsampling                       : 4:2:0
Bit depth                                : 8 bits
Scan type                                : Progressive
Bits/(Pixel*Frame)                       : 0.728
Stream size                              : 1.22 GiB (94%)

Audio
ID                                       : 4352 (0x1100)
Menu ID                                  : 1 (0x1)
Format                                   : TrueHD / AC-3
Format profile                           : TrueHD+Atmos / TrueHD / AC-3
Muxing mode                              : Stream extension
Codec ID                                 : 131
Duration                                 : 4 min 50 s
Bit rate mode                            : Variable / Constant
Bit rate                                 : 640 kb/s
Maximum bit rate                         : 7 494 kb/s
Channel(s)                               : Object Based / 8 channels / 6 channels
Channel positions                        : Object Based / Front: L C R, Side: L R, Back: L R, LFE / Front: L C R, Side: L R, LFE
Sampling rate                            :  / 48.0 kHz / 48.0 kHz
Frame rate                               : 31.250 FPS (1536 SPF)
Bit depth                                : 16 bits
Delay relative to video                  : -143 ms
Stream size                              : 22.1 MiB (2%)
Language                                 : Hindi
Service kind                             : Complete Main

Text #1
ID                                       : 4608 (0x1200)
Menu ID                                  : 1 (0x1)
Format                                   : PGS
Codec ID                                 : 144
Delay relative to video                  : -167 ms
Language                                 : English

Text #2
ID                                       : 4609 (0x1201)
Menu ID                                  : 1 (0x1)
Format                                   : PGS
Codec ID                                 : 144
Language                                 : Hindi

Text #3
ID                                       : 4610 (0x1202)
Menu ID                                  : 1 (0x1)
Format                                   : PGS
Codec ID                                 : 144
Delay relative to video                  : -125 ms
Language                                 : Arabic

Text #4
ID                                       : 4611 (0x1203)
Menu ID                                  : 1 (0x1)
Format                                   : PGS
Codec ID                                 : 144
Delay relative to video                  : -125 ms
Language                                 : Malay

Text #5
ID                                       : 4612 (0x1204)
Menu ID                                  : 1 (0x1)
Format                                   : PGS
Codec ID                                 : 144
Delay relative to video                  : -125 ms
Language                                 : Indonesian

Text #6
ID                                       : 4613 (0x1205)
Menu ID                                  : 1 (0x1)
Format                                   : PGS
Codec ID                                 : 144
Delay relative to video                  : -125 ms
Language                                 : Thai

Text #7
ID                                       : 4614 (0x1206)
Menu ID                                  : 1 (0x1)
Format                                   : PGS
Codec ID                                 : 144
Delay relative to video                  : -125 ms
Language                                 : Spanish

Text #8
ID                                       : 4615 (0x1207)
Menu ID                                  : 1 (0x1)
Format                                   : PGS
Codec ID                                 : 144
Delay relative to video                  : -125 ms
Language                                 : French

Text #9
ID                                       : 4616 (0x1208)
Menu ID                                  : 1 (0x1)
Format                                   : PGS
Codec ID                                 : 144
Delay relative to video                  : -125 ms
Language                                 : Dutch

Text #10
ID                                       : 4617 (0x1209)
Menu ID                                  : 1 (0x1)
Format                                   : PGS
Codec ID                                 : 144
Delay relative to video                  : -125 ms
Language                                 : Portuguese

Text #11
ID                                       : 4618 (0x120A)
Menu ID                                  : 1 (0x1)
Format                                   : PGS
Codec ID                                 : 144
Delay relative to video                  : -125 ms
Language                                 : Italian

 :ss:








 :download:




Share this topic on FacebookShare this topic on GoogleShare this topic on MySpaceShare this topic on TwitterShare this topic on Yahoo



Thanks given by:


February 13, 2018, 12:29:03 PM
Reply #1
  • Begginer
  • **
  • Thank You: 2
  • Reputation: 1
  • Activity:
    11.2%
  • Country: nl
  • Posts: 60
  • Topics: 3
  • Join Date: Oct 2017
  • ShareSpark Member
 :10on10: :10on10: :10on10: :10on10: :10on10: :10on10: :10on10: :10on10: :10on10: :10on10:
 :thank: :thank: :thank: :thank: :thank: :thank: :thank: :thank: :thank: :thank: :thank: :thank:
 :worthy: :worthy: :worthy: :worthy: :worthy: :worthy: :worthy: :worthy:
 :wall: :wall: :wall: :wall: :wall: :wall: :wall: :wall:
 :bravo: :bravo: :bravo: :bravo: :bravo: :bravo:
 :rep: :rep: :rep: :rep: :rep: :rep:

GD KA BOLNE WALA THA LEKIN PEHLE SE HI ..... :bravo: :bravo: :bravo: :bravo: :bravo: :bravo: :bravo: :drunk: :drunk: :drunk:

February 13, 2018, 01:28:22 PM
Reply #2
  • Senior Member
  • ***
  • Thank You: 0
  • Reputation: 7
  • Activity:
    61.8%
  • Country: au
  • Posts: 296
  • Topics: 0
  • Join Date: Oct 2017
  • ShareSpark Member

February 14, 2018, 06:54:57 AM
Reply #3
  • Begginer
  • **
  • Thank You: 1
  • Reputation: 1
  • Activity:
    12.8%
  • Country: in
  • Posts: 72
  • Topics: 4
  • Join Date: Sep 2017
  • ShareSpark Member

Tags:
 

Related Topics





Back to top