Thriller
Descargar

+ cqrcgtfg.com »  :::: Dubbed Zone (Dubbed English in Hindi) » English Movies Dubbed in Hindi
|- My Beloved Bodyguard 2016 720p Esub BluRay Dual Audio Chinese Hindi GOPISAHI


My Beloved Bodyguard 2016 720p Esub BluRay Dual Audio Chinese Hindi GOPISAHI

0 Members and 1 Guest are viewing this topic.

February 13, 2018, 11:58:14 AM
  • Addic7ed
  • Special Member
  • ****
  • Topic Author
  • Thank You: 333
  • Reputation: 77
  • Activity:
    64.2%
  • Country: in
  • Posts: 671
  • Topics: 629
  • Join Date: Oct 2013
  • ShareSpark Member

Format                         : Matroska
Format version                 : Version 4 / Version 2
File size                      : 548 MiB
Duration                       : 1 h 38 min
Overall bit rate               : 775 kb/s
Movie name                     : My Beloved Bodyguard 2016 GOPISAHI

Video
Format                         : AVC
Codec ID                       : V_MPEG4/ISO/AVC
Duration                       : 1 h 38 min
Bit rate                       : 600 kb/s
Width                          : 1 280 pixels
Height                         : 500 pixels
Display aspect ratio           : 2.560
Frame rate mode                : Constant
Frame rate                     : 24.000 FPS
Color space                    : YUV
Stream size                    : 424 MiB (77%)
Writing library                : x264 core 155 r2893 b00bcaf

Audio #1
Format                         : AAC
Duration                       : 1 h 38 min
Bit rate                       : 88.1 kb/s
Channel(s)                     : 6 channels
Channel positions              : Front: L C R, Side: L R, LFE
Sampling rate                  : 44.1 kHz
Frame rate                     : 43.066 FPS (1024 SPF)
Compression mode               : Lossy
Stream size                    : 62.3 MiB (11%)
Language                       : Hindi

Audio #2
Format                         : AAC
Duration                       : 1 h 38 min
Bit rate                       : 84.2 kb/s
Channel(s)                     : 6 channels
Channel positions              : Front: L C R, Side: L R, LFE
Sampling rate                  : 44.1 kHz
Frame rate                     : 43.066 FPS (1024 SPF)
Stream size                    : 59.5 MiB (11%)
Language                       : Chinese

Text
Language                       : English












Share this topic on FacebookShare this topic on GoogleShare this topic on MySpaceShare this topic on TwitterShare this topic on Yahoo

« Last Edit: February 13, 2018, 02:36:39 PM by jattsahi2 »



February 19, 2018, 10:13:55 PM
Reply #1
  • Hot Member
  • ***
  • Thank You: 0
  • Reputation: 3
  • Activity:
    2.8%
  • Posts: 551
  • Topics: 0
  • Join Date: Sep 2012
  • ShareSpark Member

Tags:
 

Related Topics





Back to top