The Wokking Dead
The Young Pope

+ cqrcgtfg.com »  :::: Bollywood Zone » Bollywood Movies (Pre Releases)
|- Padman 2018 720p PreDVD-Rip x264 MP3 Mafiaking M2TV(969.3 MB) Sample


  • Padman 2018 720p PreDVD-Rip x264 MP3 Mafiaking M2TV(969.3 MB) Sample 4 1
Currently:  

Padman 2018 720p PreDVD-Rip x264 MP3 Mafiaking M2TV(969.3 MB) Sample

0 Members and 1 Guest are viewing this topic.

February 11, 2018, 09:45:43 PM
  • Addic7ed
  • Special Member
  • ****
  • Topic Author
  • Thank You: 231
  • Reputation: 73
  • Activity:
    100%
  • Country: np
  • Posts: 667
  • Topics: 396
  • Join Date: May 2017
  • #Me


 :plot:
Ratings: 8.6/10

Genere: Biography, Comedy, Drama

General
Complete name : Padman (2018) - 720p - PreDVD-Rip - Hindi - x264 - MP3 - Mafiaking - M2Tv.mkv
Format : Matroska
File size : 969 MiB
Duration : 2 h 12 min
Overall bit rate : 1 025 kb/s
Movie name : Padman (2018) - 720p - PreDVD-Rip - Hindi - x264 - MP3 - Mafiaking - M2Tv

Video
ID : 1
Format : AVC
Codec ID : V_MPEG4/ISO/AVC
Duration : 2 h 12 min
Bit rate : 911 kb/s
Width : 1 280 pixels
Height : 544 pixels
Display aspect ratio : 2.35:1
Frame rate mode : Constant
Frame rate : 25.000 FPS
Stream size : 862 MiB (89%)
Title : Mafiaking
Language : Hindi
Default : Yes
Forced : No

Audio
ID : 2
Format : MPEG Audio
Codec ID/Hint : MP3
Duration : 2 h 12 min
Bit rate : 112 kb/s
Channel(s) : 2 channels
Stream size : 106 MiB (11%)
Title : Mafiaking
Language : Hindi
Default : Yes
Forced : No


 :sample: :sample:



 :ss: :ss:







 :download: :download:





Share this topic on FacebookShare this topic on GoogleShare this topic on MySpaceShare this topic on TwitterShare this topic on Yahoo

« Last Edit: February 17, 2018, 07:21:30 AM by UnikAaYush »


Busy...Upto April.

Thanks given by:


February 13, 2018, 07:49:14 PM
Reply #1
  • Royal Member
  • ****
  • Thank You: 178
  • Reputation: 78
  • Activity:
    26.6%
  • Country: sa
  • Posts: 1021
  • Topics: 100
  • Join Date: Jan 2017
  • ShareSpark Member

February 14, 2018, 09:13:29 PM
Reply #2
  • Semi Newbie
  • **
  • Thank You: 0
  • Reputation: 0
  • Activity:
    1%
  • Country: in
  • Posts: 9
  • Topics: 0
  • Join Date: Apr 2014
  • ShareSpark Member

February 14, 2018, 10:09:41 PM
Reply #3
  • Addic7ed
  • Special Member
  • ****
  • Topic Author
  • Thank You: 231
  • Reputation: 73
  • Activity:
    100%
  • Country: np
  • Posts: 667
  • Topics: 396
  • Join Date: May 2017
  • #Me

February 15, 2018, 08:24:51 PM
Reply #4
  • Newbie
  • **
  • Thank You: 0
  • Reputation: 0
  • Activity:
    0.2%
  • Posts: 2
  • Topics: 0
  • Join Date: Sep 2012
  • ShareSpark Member

February 16, 2018, 11:12:24 PM
Reply #5
  • Semi Newbie
  • **
  • Thank You: 0
  • Reputation: 0
  • Activity:
    1%
  • Country: in
  • Posts: 9
  • Topics: 0
  • Join Date: Apr 2014
  • ShareSpark Member
plz upload google drive link or indishare....!!!! :india:

February 17, 2018, 07:23:49 AM
Reply #6
  • Addic7ed
  • Special Member
  • ****
  • Topic Author
  • Thank You: 231
  • Reputation: 73
  • Activity:
    100%
  • Country: np
  • Posts: 667
  • Topics: 396
  • Join Date: May 2017
  • #Me
Busy...Upto April.

February 25, 2018, 10:52:18 AM
Reply #7
  • Semi Newbie
  • **
  • Thank You: 0
  • Reputation: 0
  • Activity:
    4.2%
  • Posts: 32
  • Topics: 0
  • Join Date: Sep 2013
  • ShareSpark Member

February 25, 2018, 01:08:27 PM
Reply #8
  • Addic7ed
  • Special Member
  • ****
  • Topic Author
  • Thank You: 231
  • Reputation: 73
  • Activity:
    100%
  • Country: np
  • Posts: 667
  • Topics: 396
  • Join Date: May 2017
  • #Me

 

Related Topics





Back to top